Jump to content


Tutorial info

  • Added on: Jun 09 2015 05:54 AM
  • Views: 739
 


* * * * *
0 Ratings

Priyamanavale HD/DVDRip-1GB

Cast- Vijay, Simran, Vivek, SP Balasubramani

Posted by tksa143 on Jun 09 2015 05:54 AM

General

Format version                           : Version 1
File size                                      : 1.01 GiB
Duration                                      : 2h 39mn
Overall bit rate                             : 905 Kbps
Encoded date                             : UTC 2015-06-08 13:48:04

Video
ID                                                 : 1
Format                                         : AVC
Format/Info                                  : Advanced Video Codec
Format profile                               : [email protected]
Format settings, CABAC               : No
Format settings, ReFrames           : 1 frame
Format settings, GOP                    : M=1, N=25
Codec ID                                        : V_MPEG4/ISO/AVC
Duration                                         : 2h 39mn
Bit rate                                           : 567 Kbps
Width                                              : 720 pixels
Height                                             : 304 pixels
Display aspect ratio                        : 2.35:1
Frame rate mode                            : Constant
Frame rate                                      : 23.976 fps
Original frame rate                          : 23.000 fps
Color space                                     : YUV
Chroma subsampling                       : 4:2:0
Bit depth                                           : 8 bits
Scan type                                         : Progressive
Bits/(Pixel*Frame)                             : 0.108
Stream size                                       : 649 MiB (63%)

Audio

Format                                               : AC-3
Format/Info                                        : Audio Coding 3
Mode extension                                 : CM (complete main)
Format settings, Endianness              : Big
Codec ID                                            : A_AC3
Duration                                             : 2h 39mn
Bit rate mode                                      : Constant
Bit rate                                                : 320 Kbps
Channel(s)                                          : 6 channels
Channel positions                                : Front: L C R, Side: L R, LFE
Sampling rate                                       : 48.0 KHz
Bit depth                                               : 16 bits
Compression mode                               : Lossy
Stream size                                           : 366 MiB (35%)
 

 

Screen Shots -

 

http://someimage.com/f6U4Wjy
http://someimage.com/EwmaB4M
http://someimage.com/nh4eVr1
http://someimage.com/RQNCTRH
http://someimage.com/MxJM7Mp
http://someimage.com/wxTtZmX
http://someimage.com/jcYJFJ6
http://someimage.com/DaJpOUN
http://someimage.com/njKQ0lU
http://someimage.com/L4sREWE

 

 

Download Links -

 

http://filerio.in/4cmcmzfkzrvx
http://filerio.in/8n8n7pc96kqq
http://filerio.in/zgk8jm20pmw5

  • 0
Powered by TamilRockers.com